GDRIVELatinoHD

Usuarios VIP

DRAGON BALL SUPER BROMY TS LATINO

Contenido oulto: Para ver este contenido Inicia Sesión en tu cuenta VIP.

https://islyce.com/UEXX8lxisY Google Drive
https://islyce.com/8Z04NRNwJv Mega
https://islyce.com/dMLygrxLQK 1fichier
https://ouo.io/6e3Of3 openload mkv

HD 720p TS Screener
Más Series y Películas en https://gdrivelatinohd.site
Por DelaC
HDTC
*** General

Format : MKV
Format profile : Base Media / Version 2
Codec ID : mp42 (mp42)
File size : 1.17 GiB
Duration : 1 h 35 min
Overall bit rate mode : Variable
Overall bit rate : 1 751 kb/s
Codirector : codirector
Production studio : studio
ContentType : Unknown Type
Encoded date : UTC 2019-01-16 21:12:53
Tagged date : UTC 2019-01-16 21:14:06

*** Video
ID : 1
Format : AVC
Format/Info : Advanced Video Codec
Format profile : Baseline@L3
Format settings : 1 Ref Frames
Format settings, CABAC : No
Format settings, ReFrames : 1 frame
Muxing mode : Container profile=Baseline@4.1
Codec ID : avc1
Codec ID/Info : Advanced Video Coding
Duration : 1 h 35 min
Bit rate : 1 624 kb/s
Width : 856 pixels
Height : 480 pixels
Display aspect ratio : 16:9
Frame rate mode : Constant
Frame rate : 29.970 (30000/1001) FPS
Original frame rate : 29.000 FPS
Color space : YUV
Chroma subsampling : 4:2:0
Bit depth : 8 bits
Scan type : Progressive
Bits/(Pixel*Frame) : 0.132
Stream size : 1.09 GiB (93%)
Language : English
Encoded date : UTC 1953-01-15 21:12:53
Tagged date : UTC 1953-01-15 21:12:53
Menus : 3
Codec configuration box : avcC

*** Audio
ID : 2
Format : AAC LC
Format/Info : Advanced Audio Codec Low Complexity
Codec ID : mp4a-40-2
Duration : 1 h 35 min
Bit rate mode : Variable
Bit rate : 119 kb/s
Maximum bit rate : 151 kb/s
Channel(s) : 2 channels
Channel layout : L R
Sampling rate : 48.0 kHz
Frame rate : 46.875 FPS (1024 SPF)
Compression mode : Lossy
Stream size : 81.4 MiB (7%)
Title : Stereo
Language : English
Default : Yes
Alternate group : 1
Encoded date : UTC 1953-01-15 21:12:53
Tagged date : UTC 1953-01-15 21:12:53

*** Menu #1
00 : 00:00.000 : Chapter1
00 : 04:52.000 : Chapter2
00 : 09:52.000 : Chapter3
00 : 14:52.000 : Chapter4
00 : 19:52.000 : Chapter5
00 : 24:52.000 : Chapter6
00 : 29:52.000 : Chapter7
00 : 34:52.000 : Chapter8
00 : 39:52.000 : Chapter9
00 : 44:52.000 : Chapter10
00 : 49:52.000 : Chapter11
00 : 54:52.000 : Chapter12
00 : 59:52.000 : Chapter13
01 : 04:52.000 : Chapter14
01 : 09:52.000 : Chapter15
01 : 14:52.000 : Chapter16
01 : 19:52.000 : Chapter17
01 : 24:52.000 : Chapter18
01 : 29:52.000 : Chapter19
01 : 34:52.000 : Chapter20

*** Menu #2
ID : 3
Codec ID : text
Duration : 1 h 34 min
Encoded date : UTC 2019-01-16 21:14:06
Tagged date : UTC 2019-01-16 21:14:06
Menu For : 1
Duration_FirstFrame : -8000
00 : 00:00.000 : Chapter1
00 : 04:52.000 : Chapter2
00 : 09:52.000 : Chapter3
00 : 14:52.000 : Chapter4
00 : 19:52.000 : Chapter5
00 : 24:52.000 : Chapter6
00 : 29:52.000 : Chapter7
00 : 34:52.000 : Chapter8
00 : 39:52.000 : Chapter9
00 : 44:52.000 : Chapter10
00 : 49:52.000 : Chapter11
00 : 54:52.000 : Chapter12
00 : 59:52.000 : Chapter13
01 : 04:52.000 : Chapter14
01 : 09:52.000 : Chapter15
01 : 14:52.000 : Chapter16
01 : 19:52.000 : Chapter17
01 : 24:52.000 : Chapter18
01 : 29:52.000 : Chapter19
01 : 34:52.000 : Chapter20
Bit rate mode : VBR


Reportar Error Visitas: 2194       
Por favor reportar los enlaces caídos por medio del paste para poder arreglarlos de una manera más rápida. Nota: Cuando reporte un enlace caído por favor dejar una nota cual es el motivo y si puede copie el mensaje “error” y dejarlo en el reporte gracias.